Пример описания коллекции музыки в CUE

Для описания используются файлы CUE.

Можно использовать для организации медиатеки в Kodi.

Структура имён файлов

CUE

ИсполнительГодАльбом.cue

Пример:

001198501.cue

Дорожка

ИсполнительГодАльбомДорожка.Расширение

Пример:

00119850101.Расширение

Шаблоны CUE

template_wav.cue
PERFORMER "Исполнитель"
TITLE "Альбом"
REM GENRE Стиль
REM DATE Год
REM DISCID Идентификатор носителя информации
REM COMMENT "«Коментарии»"
 
FILE "ИсполнительАльбомДорожка1.wav" WAVE
	TRACK 1 AUDIO
	INDEX 01 00:00:00
	TITLE "Название"
	SONGWRITER "Слова – , музыка – "
	PERFORMER "Исполнитель"
 
FILE "ИсполнительАльбомДорожка2.wav" WAVE
	TRACK 2 AUDIO
	INDEX 01 00:00:00
	TITLE "Название"
	SONGWRITER "Слова – , музыка – "
	PERFORMER "Исполнитель"
template_flac.cue
PERFORMER "Исполнитель"
TITLE "Альбом"
REM GENRE Стиль
REM DATE Год
REM DISCID Идентификатор носителя информации
REM COMMENT "«Коментарии»"
 
FILE "ИсполнительАльбомДорожка1.flac" WAVE
	TRACK 01 AUDIO
	INDEX 01 00:00:00
	TITLE "Название"
	SONGWRITER "Слова – , музыка – "
	PERFORMER "Исполнитель"
 
	TRACK 02 AUDIO
	INDEX 01 00:10:00
	TITLE "Название"
	SONGWRITER "Слова – , музыка – "
	PERFORMER "Исполнитель"
template_mp3_v1.cue
PERFORMER "Исполнитель"
TITLE "Альбом"
REM GENRE Стиль
REM DATE Год
REM DISCID Идентификатор носителя информации
REM COMMENT "«Коментарии»"
 
FILE "ИсполнительАльбомДорожка1.mp3" MP3
	TRACK 1 AUDIO
		INDEX 01 00:00:00
		TITLE "Название"
		SONGWRITER "Слова – , музыка – "
		PERFORMER "Исполнитель"
	TRACK 2 AUDIO
		INDEX 01 00:10:00
		TITLE "Название"
		SONGWRITER "Слова – , музыка – "
		PERFORMER "Исполнитель"
template_mp3_v2.cue
PERFORMER "Исполнитель"
TITLE "Альбом"
REM GENRE Стиль
REM DATE Год
REM DISCID Идентификатор носителя информации
REM COMMENT "«Коментарии»"
 
FILE "ИсполнительАльбомДорожка1.mp3" MP3
	TRACK 1 AUDIO
		INDEX 01 00:00:00
		TITLE "Название"
		SONGWRITER "Слова – , музыка – "
		PERFORMER "Исполнитель"
FILE "ИсполнительАльбомДорожка2.mp3" MP3
	TRACK 2 AUDIO
		INDEX 01 00:10:00
		TITLE "Название"
		SONGWRITER "Слова – , музыка – "
		PERFORMER "Исполнитель"

Kodi

Необходимо установить:Дополнения\Сведения об альбомах\Local information only

Пример файла guisettings.xml:

~/.kodi/userdata/guisettings.xml
    <musiclibrary>
        <albumsscraper>metadata.local</albumsscraper>
        <artistsscraper>metadata.local</artistsscraper>
        <backgroundupdate default="true">false</backgroundupdate>
        <downloadinfo>true</downloadinfo>
        <overridetags default="true">false</overridetags>
        <showallitems default="true">true</showallitems>
        <showcompilationartists default="true">true</showcompilationartists>
        <updateonstartup>true</updateonstartup>
    </musiclibrary>
examples/music_collection_cue.txt · Последние изменения: 2017-03-05 09:57 (внешнее изменение)
 
За исключением случаев, когда указано иное, содержимое этой вики предоставляется на условиях следующей лицензии: CC Attribution-Noncommercial-Share Alike 3.0 Unported
Recent changes RSS feed Donate Powered by PHP Valid XHTML 1.0 Valid CSS Driven by DokuWiki